<?xml version="1.0" standalone="no"?>
<!DOCTYPE svg PUBLIC "-//W3C//DTD SVG 1.1//EN" "http://www.w3.org/Graphics/SVG/1.1/DTD/svg11.dtd" >
<svg xmlns="http://www.w3.org/2000/svg">
<metadata>Generated by IcoMoon</metadata>
<defs>
<font id="Default-Iconfont" horiz-adv-x="1024">
<font-face units-per-em="1024" ascent="960" descent="-64" />
<missing-glyph horiz-adv-x="1024" />
<glyph unicode="&#x20;" horiz-adv-x="512" d="" />
<glyph unicode="&#xe313;" glyph-name="keyboard_arrow_down" d="M130.752 772.905l381.248-381.248 381.248 381.248 116.707-116.707-497.955-497.955-497.955 497.955z" />
<glyph unicode="&#xe314;" glyph-name="keyboard_arrow_left" d="M814.832 51.004l-115-115-490.663 490.663 490.663 490.663 115-115-375.663-375.663z" />
<glyph unicode="&#xe315;" glyph-name="keyboard_arrow_right" d="M196 34.671l391.996 391.996-391.996 391.996 120 120 511.996-511.996-511.996-511.996z" />
<glyph unicode="&#xe316;" glyph-name="keyboard_arrow_up" d="M130.752 142.676l-116.707 116.707 497.955 497.955 497.955-497.955-116.707-116.707-381.248 381.248z" />
<glyph unicode="&#xe5c4;" glyph-name="arrow_back" d="M1024.664 489.627v-125.92h-779.496l356.768-359.768-89.944-89.944-512.664 512.664 512.664 512.664 89.944-89.944-356.768-359.768h779.496z" />
<glyph unicode="&#xe5c8;" glyph-name="arrow_forward" d="M512 939.331l512.664-512.664-512.664-512.664-89.944 89.944 356.768 359.768h-779.496v125.92h779.496l-356.768 359.768z" />
<glyph unicode="&#xe5d8;" glyph-name="arrow_upward" d="M-0.664 426.667l512.664 512.664 512.664-512.664-92.936-89.944-356.768 356.768v-779.496h-125.92v779.496l-359.768-356.768z" />
<glyph unicode="&#xe5db;" glyph-name="arrow_downward" d="M1003.331 426.667l-491.331-491.331-491.331 491.331 89.069 86.201 341.922-341.922v747.059h120.68v-747.059l344.797 341.922z" />
<glyph unicode="&#xe894;" glyph-name="language" d="M735.551 323.305h173.070c7.21 33.652 14.423 67.304 14.423 103.362s-7.21 69.71-14.423 103.362h-173.070c4.807-33.652 7.21-67.304 7.21-103.362s-2.403-69.71-7.21-103.362zM644.208 39.662c93.746 31.249 175.473 98.553 223.551 182.686h-151.437c-16.826-64.901-40.865-124.995-72.113-182.686zM632.188 323.305c4.807 33.652 7.21 67.304 7.21 103.362s-2.403 69.71-7.21 103.362h-240.377c-4.807-33.652-7.21-67.304-7.21-103.362s2.403-69.71 7.21-103.362h240.377zM512 18.027c43.268 62.498 76.92 129.802 98.553 204.319h-197.109c21.633-74.517 55.287-141.821 98.553-204.319zM307.681 630.986c16.826 64.901 40.865 124.995 72.113 182.686-93.746-31.249-175.473-98.553-223.551-182.686h151.437zM156.244 222.348c48.075-84.131 129.802-151.437 223.551-182.686-31.249 57.691-55.287 117.785-72.113 182.686h-151.437zM115.379 323.305h173.070c-4.807 33.652-7.21 67.304-7.21 103.362s2.403 69.71 7.21 103.362h-173.070c-7.21-33.652-14.423-67.304-14.423-103.362s7.21-69.71 14.423-103.362zM512 835.307c-43.268-62.498-76.92-129.802-98.553-204.319h197.109c-21.633 74.517-55.287 141.821-98.553 204.319zM867.756 630.986c-48.075 84.131-129.802 151.437-223.551 182.686 31.249-57.691 55.287-117.785 72.113-182.686h151.437zM512 938.667c283.643 0 512-228.357 512-512s-228.357-512-512-512-512 228.357-512 512 228.357 512 512 512z" />
<glyph unicode="&#xe900;" glyph-name="close" d="M572.235 426.667l451.765-451.765-60.235-60.235-451.765 451.765-451.765-451.765-60.235 60.235 451.765 451.765-451.765 451.765 60.235 60.235 451.765-451.765 451.765 451.765 60.235-60.235-451.765-451.765z" />
<glyph unicode="&#xe901;" glyph-name="arrow-thin-down" d="M511.986 219.8l487.021 487.021c5.713 5.713 14.98 5.713 20.704 0s5.713-14.98 0-20.704l-496.932-496.932c-2.975-2.975-6.891-4.391-10.781-4.288-3.898-0.116-7.811 1.312-10.781 4.288l-496.932 496.932c-5.713 5.713-5.713 14.98 0 20.704s14.98 5.713 20.704 0l487.021-487.021z" />
<glyph unicode="&#xe902;" glyph-name="arrow-thin-left" d="M284.002 448l486.597-486.597c5.713-5.713 5.713-14.975 0-20.688s-14.975-5.713-20.688 0l-496.51 496.51c-2.966 2.966-4.392 6.889-4.278 10.775-0.114 3.886 1.312 7.809 4.278 10.775l496.51 496.51c5.713 5.713 14.975 5.713 20.688 0s5.713-14.975 0-20.688l-486.597-486.597z" />
<glyph unicode="&#xe903;" glyph-name="arrow-thin-right" d="M739.998 448l-486.597 486.597c-5.713 5.713-5.713 14.975 0 20.688s14.975 5.713 20.688 0l496.51-496.51c2.966-2.966 4.392-6.889 4.278-10.775 0.114-3.886-1.312-7.809-4.278-10.775l-496.51-496.51c-5.713-5.713-14.975-5.713-20.688 0s-5.713 14.975 0 20.688l486.597 486.597z" />
<glyph unicode="&#xe904;" glyph-name="arrow-thin-up" d="M512.018 676.244l-487.113-487.113c-5.714-5.714-14.982-5.714-20.709 0s-5.714 14.982 0 20.709l497.023 497.023c2.975 2.975 6.893 4.393 10.783 4.289 3.9 0.117 7.811-1.312 10.783-4.289l497.023-497.023c5.714-5.714 5.714-14.982 0-20.709s-14.982-5.714-20.709 0l-487.113 487.113z" />
<glyph unicode="&#xe905;" glyph-name="upload" d="M972.8 324.267c-30.72 0-51.2-20.48-51.2-51.2v-204.8c0-30.72-20.48-51.2-51.2-51.2h-716.8c-30.72 0-51.2 20.48-51.2 51.2v204.8c0 30.72-20.48 51.2-51.2 51.2s-51.2-20.48-51.2-51.2v-204.8c0-87.040 66.56-153.6 153.6-153.6h716.8c87.040 0 153.6 66.56 153.6 153.6v204.8c0 30.72-20.48 51.2-51.2 51.2zM547.843 923.307c-5.12 5.12-10.24 10.24-15.36 10.24-5.12 5.12-15.36 5.12-20.48 5.12s-15.36 0-20.48-5.12c-5.12-5.12-10.24-5.12-15.36-10.24l-256-256c-20.48-20.48-20.48-51.2 0-71.68s51.2-20.48 71.68 0l168.96 168.96v-491.52c0-30.72 20.48-51.2 51.2-51.2s51.2 20.48 51.2 51.2v491.52l168.96-168.96c20.48-20.48 51.2-20.48 71.68 0s20.48 51.2 0 71.68l-256 256z" />
<glyph unicode="&#xe906;" glyph-name="calendar" d="M837.819 845.577h-93.091v46.545c0 27.928-18.619 46.545-46.545 46.545s-46.545-18.619-46.545-46.545v-46.545h-279.273v46.545c0 27.928-18.619 46.545-46.545 46.545s-46.545-18.619-46.545-46.545v-46.545h-93.091c-79.127 0-139.636-60.509-139.636-139.636v-651.636c0-79.127 60.509-139.636 139.636-139.636h651.636c79.127 0 139.636 60.509 139.636 139.636v651.636c0 79.127-60.509 139.636-139.636 139.636zM186.181 752.486h93.091v-46.545c0-27.928 18.619-46.545 46.545-46.545s46.545 18.619 46.545 46.545v46.545h279.273v-46.545c0-27.928 18.619-46.545 46.545-46.545s46.545 18.619 46.545 46.545v46.545h93.091c27.928 0 46.545-18.619 46.545-46.545v-139.636h-744.728v139.636c0 27.928 18.619 46.545 46.545 46.545zM837.819 7.757h-651.636c-27.928 0-46.545 18.619-46.545 46.545v418.91h744.728v-418.91c0-27.928-18.619-46.545-46.545-46.545z" />
<glyph unicode="&#xe907;" glyph-name="tripadvisor" horiz-adv-x="1317" d="M372.215 403.088c0-29.714-24-53.714-53.143-53.714-29.714 0-53.714 24-53.714 53.714 0 29.143 24 53.143 53.714 53.143 29.143 0 53.143-24 53.143-53.143zM1031.644 403.659c0-29.714-24-53.714-53.714-53.714s-53.714 24-53.714 53.714 24 53.143 53.714 53.143 53.714-23.429 53.714-53.143zM437.358 403.088c0 60.571-49.714 110.286-110.286 110.286-61.143 0-110.286-49.714-110.286-110.286 0-61.143 49.143-110.286 110.286-110.286 60.571 0 110.286 49.143 110.286 110.286zM1096.215 403.659c0 60.571-49.143 110.286-110.286 110.286-60.571 0-110.286-49.714-110.286-110.286 0-61.143 49.714-110.286 110.286-110.286 61.143 0 110.286 49.143 110.286 110.286zM485.929 403.088c0-88-70.857-159.429-158.857-159.429s-159.429 71.429-159.429 159.429c0 87.429 71.429 158.857 159.429 158.857s158.857-71.429 158.857-158.857zM1145.358 403.659c0-88-71.429-158.857-159.429-158.857-87.429 0-158.857 70.857-158.857 158.857s71.429 158.857 158.857 158.857c88 0 159.429-70.857 159.429-158.857zM594.501 401.945c0 145.714-118.286 264-264 264-145.143 0-263.429-118.286-263.429-264s118.286-264 263.429-264c145.714 0 264 118.286 264 264zM976.215 729.373c-94.286 41.143-200.571 63.429-317.714 63.429s-233.714-22.286-327.429-62.857c181.143-0.571 327.429-146.857 327.429-328 0 177.714 141.143 322.286 317.714 327.429zM1249.929 401.945c0 145.714-117.714 264-263.429 264s-264-118.286-264-264 118.286-264 264-264 263.429 118.286 263.429 264zM1097.929 725.373h218.857c-34.286-40-59.429-93.714-65.714-130.857 39.429-54.286 62.857-120.571 62.857-192.571 0-181.143-146.857-327.429-327.429-327.429-102.857 0-194.286 46.857-254.286 120.571 0 0-26.857-32-73.714-102.286-8 16.571-48.571 74.286-73.143 102.857-60-74.286-152-121.143-254.857-121.143-180.571 0-327.429 146.286-327.429 327.429 0 72 23.429 138.286 62.857 192.571-6.286 37.143-31.429 90.857-65.714 130.857h208.571c112 74.857 274.857 121.714 449.714 121.714s327.429-46.857 439.429-121.714z" />
<glyph unicode="&#xe908;" glyph-name="facebook" d="M575.173-50.613v466.825h156.691l23.462 181.933h-180.153v116.153c0 52.674 14.626 88.567 90.155 88.567l96.336 0.042v162.723c-16.655 2.218-73.841 7.171-140.378 7.171-138.897 0-233.99-84.784-233.99-240.485v-134.17h-157.094v-181.933h157.094v-466.828h187.876z" />
<glyph unicode="&#xe909;" glyph-name="instagram" d="M511.193 971.187c138.832 0 156.242-0.585 210.765-3.076 54.411-2.485 91.571-11.125 124.085-23.76 33.617-13.063 62.123-30.543 90.542-58.962s45.899-56.929 58.962-90.544c12.64-32.517 21.28-69.677 23.763-124.088 2.489-54.523 3.074-71.929 3.074-210.76 0-138.836-0.585-156.242-3.074-210.765-2.483-54.411-11.123-91.571-23.763-124.088-13.063-33.615-30.543-62.126-58.962-90.544s-56.925-45.899-90.542-58.962c-32.515-12.635-69.675-21.275-124.085-23.76-54.523-2.487-71.933-3.076-210.765-3.076s-156.24 0.589-210.763 3.076c-54.413 2.485-91.573 11.125-124.085 23.76-33.617 13.063-62.126 30.543-90.544 58.962s-45.899 56.929-58.96 90.544c-12.642 32.517-21.282 69.677-23.763 124.088-2.489 54.523-3.076 71.929-3.076 210.765 0 138.832 0.587 156.237 3.076 210.76 2.48 54.411 11.121 91.571 23.763 124.088 13.061 33.615 30.541 62.126 58.96 90.544s56.927 45.899 90.544 58.962c32.513 12.635 69.672 21.275 124.085 23.76 54.523 2.492 71.931 3.076 210.763 3.076zM511.193 879.080c-136.494 0-152.659-0.52-206.566-2.978-49.838-2.274-76.908-10.605-94.921-17.603-23.861-9.274-40.891-20.352-58.778-38.24-17.885-17.89-28.963-34.917-38.238-58.778-7-18.013-15.329-45.083-17.605-94.921-2.456-53.907-2.978-70.071-2.978-206.566 0-136.499 0.522-152.663 2.978-206.566 2.277-49.842 10.605-76.912 17.605-94.925 9.274-23.859 20.352-40.888 38.238-58.778 17.888-17.888 34.917-28.966 58.778-38.238 18.013-7 45.083-15.331 94.921-17.601 53.898-2.463 70.060-2.98 206.566-2.98s152.668 0.518 206.566 2.98c49.84 2.27 76.908 10.601 94.921 17.601 23.863 9.272 40.893 20.35 58.778 38.238 17.892 17.89 28.97 34.919 38.24 58.778 6.998 18.013 15.329 45.083 17.603 94.925 2.458 53.902 2.98 70.067 2.98 206.566 0 136.494-0.522 152.659-2.98 206.566-2.274 49.838-10.605 76.908-17.603 94.921-9.27 23.861-20.348 40.888-38.24 58.778-17.885 17.888-34.915 28.966-58.778 38.24-18.013 6.998-45.081 15.329-94.921 17.603-53.907 2.458-70.071 2.978-206.566 2.978zM511.193 722.498c144.976 0 262.503-117.529 262.503-262.503 0-144.98-117.527-262.505-262.503-262.505s-262.503 117.525-262.503 262.505c0 144.973 117.527 262.503 262.503 262.503zM511.193 289.597c94.109 0 170.399 76.289 170.399 170.399 0 94.107-76.289 170.396-170.399 170.396-94.107 0-170.399-76.289-170.399-170.396 0-94.109 76.291-170.399 170.399-170.399zM845.414 732.87c0-33.877-27.464-61.344-61.344-61.344-33.877 0-61.344 27.467-61.344 61.344 0 33.879 27.467 61.344 61.344 61.344 33.879 0 61.344-27.464 61.344-61.344z" />
<glyph unicode="&#xe90a;" glyph-name="download" d="M972.801 324.265c-30.72 0-51.199-20.479-51.199-51.199v-204.799c0-30.72-20.479-51.199-51.199-51.199h-716.8c-30.72 0-51.199 20.479-51.199 51.199v204.799c0 30.72-20.479 51.199-51.199 51.199s-51.199-20.479-51.199-51.199v-204.799c0-87.041 66.559-153.6 153.6-153.6h716.8c87.041 0 153.6 66.559 153.6 153.6v204.799c0 30.72-20.479 51.199-51.199 51.199zM476.162 237.227c5.119-5.119 10.241-10.241 15.36-10.241 5.119-5.119 15.36-5.119 20.479-5.119s15.36 0 20.479 5.119c5.119 5.119 10.241 5.119 15.36 10.241l256.001 256.001c20.479 20.479 20.479 51.199 0 71.681s-51.199 20.479-71.681 0l-168.96-168.96v491.52c0 30.72-20.479 51.199-51.199 51.199s-51.199-20.479-51.199-51.199v-491.52l-168.96 168.96c-20.479 20.479-51.199 20.479-71.681 0s-20.479-51.199 0-71.681l256.001-256.001z" />
<glyph unicode="&#xe90b;" glyph-name="linkedin" horiz-adv-x="1069" d="M1068.522 343.871v-395.071h-229.050v368.581c0 92.576-33.094 155.767-115.994 155.767-63.31 0-100.931-42.548-117.508-83.76-6.025-14.722-7.598-35.187-7.598-55.83v-384.757h-229.094c0 0 3.072 624.299 0 688.929h229.094v-97.621c-0.46-0.757-1.098-1.514-1.499-2.256h1.499v2.256c30.438 46.837 84.755 113.798 206.432 113.798 150.736 0 263.717-98.438 263.717-310.035zM129.618 969.847c-78.373 0-129.618-51.423-129.618-119.021 0-66.144 49.79-119.066 126.605-119.066h1.514c79.887 0 129.558 52.922 129.558 119.066-1.499 67.599-49.671 119.021-128.059 119.021zM13.624-51.2h228.99v688.929h-228.99v-688.929z" />
<glyph unicode="&#xe90c;" glyph-name="pinterest" d="M525.461 972.8c-321.263 0-483.257-200.691-483.257-368.045 0-101.331 44.034-191.479 138.471-225.081 15.489-5.517 29.355-0.188 33.851 14.752 3.123 10.325 10.516 36.422 13.816 47.272 4.527 14.775 2.77 19.959-9.726 32.842-27.229 27.989-44.633 64.219-44.633 115.535 0 148.895 127.851 282.179 332.919 282.179 181.584 0 281.342-96.674 281.342-225.787 0-169.874-86.276-313.249-214.369-313.249-70.741 0-123.692 50.975-106.718 113.49 20.323 74.639 59.695 155.184 59.695 209.059 0 48.224-29.708 88.448-91.199 88.448-72.318 0-130.406-65.182-130.406-152.498 0-55.609 21.57-93.224 21.57-93.224s-73.999-273.197-86.974-321.041c-25.836-95.281-3.883-212.086-2.026-223.888 1.078-6.99 11.399-8.656 16.068-3.372 6.664 7.593 92.787 100.234 122.069 192.803 8.283 26.212 47.571 161.948 47.571 161.948 23.492-39.054 92.154-73.442 165.167-73.442 217.369 0 364.852 172.664 364.852 403.78 0 174.762-169.894 337.52-428.085 337.52z" />
<glyph unicode="&#xe90d;" glyph-name="twitter" horiz-adv-x="1257" d="M1257.724 851.825c-46.256-20.523-95.989-34.392-148.175-40.646 53.267 31.949 94.16 82.511 113.421 142.746-49.847-29.577-105.048-51.038-163.85-62.597-47.047 50.138-114.116 81.472-188.326 81.472-142.512 0-258.015-115.517-258.015-258.015 0-20.232 2.258-39.926 6.682-58.801-214.454 10.745-404.58 113.502-531.842 269.588-22.209-38.093-34.935-82.406-34.935-129.7 0-89.531 45.532-168.488 114.788-214.783-42.289 1.319-82.082 12.936-116.879 32.273-0.033-1.086-0.033-2.158-0.033-3.234 0-125.033 88.945-229.3 206.977-253.018-21.633-5.892-44.427-9.021-67.955-9.021-16.646 0-32.782 1.572-48.561 4.606 32.858-102.505 128.124-177.114 241.059-179.205-88.383-69.213-199.618-110.44-320.517-110.44-20.813 0-41.365 1.229-61.564 3.596 114.231-73.214 249.846-115.922 395.574-115.922 474.588 0 734.084 393.168 734.084 734.156 0 11.183-0.248 22.29-0.729 33.349 50.39 36.407 94.137 81.839 128.748 133.592z" />
<glyph unicode="&#xe90e;" glyph-name="youtube" horiz-adv-x="1365" d="M1109.333 972.8c140.8 0 256-115.2 256-256v-512c0-140.8-115.2-256-256-256h-853.333c-140.8 0-256 115.2-256 256v512c0 140.8 115.2 256 256 256h853.333zM512 119.467l426.667 341.333-426.667 341.333v-682.667z" />
<glyph unicode="&#xe90f;" glyph-name="check-set" horiz-adv-x="1142" d="M517.881 280.944l532.784 529.16c21.527 21.38 53.817 21.38 75.343 0s21.527-53.451 0-74.831l-608.128-603.991-317.518 315.358c-21.527 21.38-21.527 53.451 0 74.831s53.817 21.38 75.343 0l242.175-240.527zM905.846 859.898h-827.077v-866.462h866.462v354.462l78.769 78.769v-512h-1024v1024h984.615l-78.769-78.769z" />
<glyph unicode="&#xe910;" glyph-name="check-unset" horiz-adv-x="1142" d="M78.769 859.898v-866.462h866.462v866.462h-866.462zM0 938.667h1024v-1024h-1024v1024z" />
<glyph unicode="&#xe911;" glyph-name="mail" d="M884.363 845.576h-744.727c-79.127 0-139.636-60.509-139.636-139.636v-558.545c0-79.127 60.509-139.636 139.636-139.636h744.727c79.127 0 139.636 60.509 139.636 139.636v558.545c0 79.127-60.509 139.636-139.636 139.636zM139.637 752.485h744.727c18.619 0 32.582-9.309 41.891-27.927l-414.254-288.581-414.254 288.581c9.309 18.619 23.272 27.927 41.891 27.927zM884.363 100.849h-744.727c-27.927 0-46.546 18.619-46.546 46.546v470.109l390.982-274.618c9.309-4.655 18.619-9.309 27.927-9.309s18.619 4.655 27.927 9.309l390.982 274.618v-470.109c0-27.927-18.619-46.546-46.546-46.546z" />
<glyph unicode="&#xe912;" glyph-name="map-pin" d="M512 938.667c-234.667 0-426.667-192-426.667-426.667 0-315.733 388.267-580.267 401.067-588.8 8.533-4.267 17.067-8.533 25.6-8.533s17.067 4.267 25.6 8.533c12.8 8.533 401.067 273.067 401.067 588.8 0 234.667-192 426.667-426.667 426.667zM512 8.534c-81.067 59.733-341.333 273.067-341.333 503.467 0 187.733 153.6 341.333 341.333 341.333s341.333-153.6 341.333-341.333c0-230.4-260.267-443.733-341.333-503.467zM512 682.667c-93.867 0-170.667-76.8-170.667-170.667s76.8-170.667 170.667-170.667c93.867 0 170.667 76.8 170.667 170.667s-76.8 170.667-170.667 170.667zM512 426.667c-46.933 0-85.333 38.4-85.333 85.333s38.4 85.333 85.333 85.333c46.933 0 85.333-38.4 85.333-85.333s-38.4-85.333-85.333-85.333z" />
<glyph unicode="&#xe918;" glyph-name="phone" d="M904.767 337.826c-42.082 4.676-84.164 14.027-121.57 28.055-51.433 18.704-107.543 4.676-149.625-32.731l-32.731-32.731c-84.164 56.11-158.978 126.247-215.087 215.087l32.731 32.731c37.406 37.406 51.433 98.192 32.731 149.625-14.027 37.406-23.379 79.488-28.055 121.57-9.351 70.137-70.137 121.57-140.274 121.57 0 0 0 0 0 0h-140.274c-4.676 0-9.351 0-14.027 0-37.406-4.676-70.137-23.379-93.516-51.433s-32.731-65.461-32.731-102.868c14.027-149.625 70.137-299.251 149.625-425.498 74.813-116.895 177.68-219.762 294.575-294.575 126.247-84.164 275.872-135.598 425.498-149.625 4.676 0 9.351 0 14.027 0 0 0 0 0 0 0 37.406 0 74.813 14.027 98.192 42.082s42.082 60.786 42.082 98.192v140.274c0 70.137-51.433 130.923-121.57 140.274zM932.822 197.552v-140.274c0-14.027-4.676-23.379-14.027-32.731s-18.704-14.027-37.406-14.027c-135.598 14.027-266.521 60.786-383.416 135.598-107.543 65.461-196.384 158.978-266.521 266.521-74.813 116.895-121.57 247.817-135.598 383.416 0 14.027 4.676 23.379 9.351 32.731 9.351 9.351 23.379 18.704 37.406 18.704h140.274c0 0 0 0 0 0 23.379 0 42.082-18.704 46.758-42.082 4.676-46.758 18.704-98.192 37.406-140.274 4.676-18.704 0-37.406-9.351-51.433l-60.786-56.11c-14.027-14.027-18.704-37.406-9.351-56.11 70.137-126.247 173.005-229.115 299.251-299.251 18.704-9.351 42.082-9.351 56.11 9.351l60.786 60.786c14.027 14.027 32.731 18.704 51.433 9.351 46.758-18.704 93.516-28.055 140.274-37.406 18.704-4.676 37.406-23.379 37.406-46.758 0 0 0 0 0 0z" />
<glyph unicode="&#xe922;" glyph-name="home" d="M958.329 603.339l-418.434 325.449c-18.597 13.948-41.843 13.948-55.791 0l-418.434-325.449c-13.948-9.298-18.597-23.246-18.597-37.194v-511.419c0-79.037 60.441-139.478 139.478-139.478h650.897c79.037 0 139.478 60.441 139.478 139.478v511.419c0 13.948-4.65 27.896-18.597 37.194zM604.985 8.233h-185.971v371.941h185.971v-371.941zM883.941 54.726c0-27.896-18.597-46.493-46.493-46.493h-139.478v418.434c0 27.896-18.597 46.493-46.493 46.493h-278.956c-27.896 0-46.493-18.597-46.493-46.493v-418.434h-139.478c-27.896 0-46.493 18.597-46.493 46.493v488.173l371.941 288.254 371.941-288.254v-488.173z" />
<glyph unicode="&#xe92d;" glyph-name="google" d="M55.227 712.307c0-85.185 28.453-146.65 84.5-182.744 45.957-29.65 99.212-34.098 126.923-34.098 6.728 0 12.146 0.341 15.909 0.57 0 0-8.781-57.247 33.64-113.809h-1.939c-73.497 0-313.202-15.339-313.202-212.506 0-200.475 220.147-210.682 264.337-210.682 3.477 0 5.53 0.114 5.53 0.114 0.456 0 3.592-0.114 9.010-0.114 28.338 0 101.606 3.534 169.63 36.664 88.264 42.764 133.024 117.401 133.024 221.516 0 100.581-68.193 160.449-117.971 204.238-30.392 26.741-56.677 49.778-56.677 72.185 0 22.808 19.214 39.969 43.448 61.694 39.285 35.066 76.347 85.070 76.347 179.608 0 83.076-10.777 138.897-77.203 174.304 6.899 3.534 31.417 6.1 43.506 7.812 35.979 4.903 88.607 10.491 88.607 39.855v5.645h-262.227c-2.623-0.114-265.191-9.806-265.191-250.253zM478.53 198.402c5.018-80.167-63.576-139.296-166.606-146.765-104.628-7.698-190.726 39.399-195.744 119.509-2.452 38.545 14.483 76.177 47.61 106.226 33.583 30.392 79.712 49.208 129.888 52.914 5.931 0.341 11.802 0.684 17.676 0.684 96.875-0.057 162.445-56.961 167.176-132.568zM410.052 767.215c25.715-90.546-13.114-185.081-75.035-202.586-7.128-1.996-14.426-2.964-21.895-2.964-56.677 0-112.839 57.361-133.708 136.444-11.631 44.245-10.662 83.132 2.68 120.422 13.057 36.776 36.664 61.466 66.312 69.848 7.128 1.996 14.483 3.022 21.952 3.022 68.422 0 112.44-28.396 139.694-124.186zM854.11 574.836v171.054h-114.036v-171.054h-171.054v-114.036h171.054v-171.054h114.036v171.054h171.054v114.036h-171.054z" />
</font>
</defs>
</svg>
